Филмy о супружескоj неверности список

Филмy о супружескоj неверности список

Филмy о супружескоj неверности список

Список лучших фильмов про измену смотреть онлайн

Север ада (2015) Молодой мужчина Дон Шонпейн наконец-то смог выбиться в люди, теперь он продает элитную мебель, а реклама с его лицом часто проскакивает по телевидению. У Дона есть всё, что может пожелать любой здоровый мужчина, почти всё.Все мелодрамы про измены, русские и зарубежные, мы собрали в этой специальной подборке, пользоваться которой можно бесплатно.За эту непредсказуемость мы и любим мелодрамы. Кино про любовь оно такое, и главное в нем это верить: что счастливый финал обязательно наступит и что всё будет хорошо. Выбирать и смотреть онлайн данные фильмы достаточно легко.И тут у героя возникает дилемма: какие шаги предпринимать дальше, ведь семья рушится. И что делать, как продолжать жить? Особо сложными эти вопросы становятся, когда в семье есть растущие подростки или маленькие дети.

Как объяснить им происходящие перемены и то, что их родители, мама и папа, теперь не вместе? А может, пересилив обиду и простив, попытаться начать всё заново? Дальше сюжет фильма или сериала может развиваться в любом, самом разнообразном ключе.Его красавица жена редко соглашается исполнять супружеский долг и даже завела список того, когда именно они этим будут заниматься, естественно, что Дона не устраивает такой расклад вещей и он находит выход.Нередко в мелодрамах основой для сюжета становятся супружеские измены. Это может быть измена совершённая любой из сторон. Причём узнаёт о неверности одна из половинок, муж или жена, как правило случайно, либо с подачи любовницы или любовника второй стороны.

2.2 Константы Константы поименованные объекты, хранящие некоторые значения, которые не могут быть изменены. Например, p 3.14. Размерные константы это общепринятые единицы измерения. Например, метры, секунды и т.д. Чтобы записать размерную константу, необходимо после числа ввести знак (умножить выбрать пункт меню Вставка подпункт Юнит.5. При встрече подробно расспросите малыша о прожитом дне и похвалите за успехи, расскажите, как много вы успели сделать, потому что он помог вам. 6. Последите, как ребенок играет с другими детьми. (Взаимоотношения детей со сверстниками в этом возрасте только формируются.Diskette Build Wizard Различие версий Обращаю внимание, что мы рассматриваем «персональную» версию PPM6, которая может установиться и запускаться только на Windows 9X/XP и не может работать в Терминальных Сессиях. Для работы в Windows NT Server существует профессиональная версия PPM6 (50 которая имеет ряд дополнительных преимуществ.MediaInfo GeneralUnique ID : (0xF0544A347BADAC 489014E50970D04974)Complete name : C:Hamlet. dvbtsЮвелирное дело. mkvFormat : MatroskaFormat version : Version 2File size : 2.30 GiBDuration : 1 h 27 minOverall bit rate : 3 775 kb/sWriting application : LavfWriting library : Lavf VideoID : 1Format : AVCF ormat/Info : Advanced Video CodecFormat profile : [email protected] settings, CABAC : YesFormat settings, ReFrames : 4 framesCodec ID : V_MPEG 4/ISO/AVCD uration : 1 h 27 minBit rate : 3 508 kb/sWidth : 720 pixelsHeight : 576 pixelsDisplay aspect ratio : 4:3Original display aspect ratio : 4:3Frame rate mode : ConstantFrame rate : 25.000 FPSS tandard : ComponentColor space : YUVC hroma subsampling : Bit depth : 8 bitsScan type : InterlacedScan type, store method : Separated fieldsScan order : Top Field FirstBits PixelFrame) : 0.338Stream size : 2.14 GiB (93)Default : NoForced : NoColor range : LimitedColor primaries : BT.601 PALT ransfer characteristics : BT.470 System B, BT.470 System GMatrix coefficients : BT.601 AudioID : 2Format : MPEG AudioFormat version : Version 1Format profile : Layer 2Codec ID : A_MPEG /L2Codec ID/Hint : MP2Duration : 1 h 27 minBit rate mode : ConstantBit rate : 192 kb/sChannel(s) : 2 channelsSampling rate : 48.0 kHzCompression mode : LossyStream size : 120 MiB (5)Language : RussianDefault : YesForced : No Скриншоты.ua_t_5400199 Торрент: Зарегистрирован 09:05 4df1e097086b41f647d37b07301dbb599b448d64 12 KB Статус: проверено Скачан:

Скачать

2016 kcsonvo.ru